Урожай stadt land fluss

Добавлено: 20.07.2018, 13:08 / Просмотров: 65295
Закрыть ... [X]

урожай stadt land fluss Город деревня река / Урожай / Stadt Land Fluss / Harvest
Страна: Германия
Жанр: драма
Год выпуска: 2011
Продолжительность: 1:24:08
Перевод: Одноголосый закадровый - В. Кошкин; перевод - DenisLp, корректировка Woland
Субтитры: нет
Режиссер: Бенджамин Канту / Benjamin Cantu
В ролях: Лукас Штельтнер / Lukas Steltner (Марко), Кай Михаэль Мюллер / Kai Michael Müller (Якоб) и др.
Описание: Марко осваивает профессию на большом сельскохозяйственном предприятии в районе Нуте-Урштромталь в 60 километрах от Берлина. Если Марко сдаст выпускной экзамен, то станет настоящим фермером, если захочет, но он не уверен. У него не много друзей, кроме тех, с кем он работает, а для одиннадцати других соучеников Марко - неразговорчивый и нелюдимый парень. Но когда появляется новый ученик Якоб, Марко начинает раскрываться. Двое юношей понемногу узнают друг друга: во время уборки урожая, пока перевозят зерно с полей или отнимают телят у коров. Однажды они сбегают на день в Берлин, и все вдруг меняется. Рождается нежное чувство. Правда, ни один, ни другой никогда не задумывались, как и насколько открыто они готовы прожить свою жизнь.
Доп. информация:
Награда Берлинале 2011
Сэмпл: http://sendfile.su/1003049
Качество видео: DVDRip
Формат видео: AVI
Видео: Xvid 720x400 25fps 2018kbps
Аудио: MP3 48000Hz stereo 160kbps

MediaInfo

General
Complete name : F:\Temp\Stadt Land Fluss.avi
Format : AVI
Format/Info : Audio Video Interleave
File size : 1.29 GiB
Duration : 1h 24mn
Overall bit rate : 2 189 Kbps
Writing application : VirtualDubMod 1.5.10.2 (build 2540/release)
Writing library : VirtualDubMod build 2540/release
Video
ID : 0
Format : MPEG-4 Visual
Format profile : Advanced Simple@L5
Format settings, BVOP : Yes
Format settings, QPel : No
Format settings, GMC : No warppoints
Format settings, Matrix : Default (MPEG)
Codec ID : XVID
Codec ID/Hint : XviD
Duration : 1h 24mn
Bit rate : 2 019 Kbps
Width : 720 pixels
Height : 400 pixels
Display aspect ratio : 16:9
Frame rate : 25.000 fps
Color space : YUV
Chroma subsampling : 4:2:0
Bit depth : 8 bits
Scan type : Progressive
Compression mode : Lossy
Bits/(PixelFrame) : 0.280
Stream size : 1.19 GiB (92%)
Writing library : XviD 1.2.1 (UTC 2008-12-04)
Audio
ID : 1
Format : MPEG Audio
Format version : Version 1
Format profile : Layer 3
Codec ID : 55
Codec ID/Hint : MP3
Duration : 1h 24mn
Bit rate mode : Constant
Bit rate : 160 Kbps
Channel(s) : 2 channels
Sampling rate : 48.0 KHz
Compression mode : Lossy
Stream size : 96.3 MiB (7%)
Alignment : Split accross interleaves
Interleave, duration : 40 ms (1.00 video frame)
Interleave, preload duration : 500 ms
Writing library : LAMELAME_MAJOR_VERSI


Скриншоты

Download

Сайт не распространяет и не хранит электронные версии произведений, а лишь предоставляет доступ к создаваемому пользователями каталогу ссылок на торрент-файлы, которые содержат только списки хеш-сумм

DenisLp писал(а):

64639414Но дело не в качестве, а просто голос и манера произношения у него как-то, ну не для серьезных фильмов.

У меня противоположное мнение, голос и манера не напрягают и не отвлекают на себя от кино, то что надо.

DenisLp писал(а):

64639414Кстати, а чего это он со своего трекера удалился?

Я слышал что он перестал фильмами заниматься. Но он и раньше уже уходил. Кстати, спасибо за перевод

DenisLp писал(а):

64639617Ну может быть. Субъективщина.

Ну, мы слыхали довольно много любительских и авторских озвучек чтобы судить более-менее объективно )

DenisLp писал(а):

64639617Мне Кузнецов раньше не нравился, то по сравнению с Кошкиным, он лучше

Мне Кошкин тоже Кузнецова напоминает, но напротив - улучшенную его версию.

DenisLp писал(а):

64639617Вот это его прекрасно характеризует.

Это характеризует просто то что озвучивание видимо не источник его доходов.

DenisLp писал(а):

64639617А еще бесит, что он субтитры зажимает.

А с чего ты взял что они у него вообще есть? - Ему же его переводчики вряд ли в виде готовых сабов перевод передают.

DenisLp писал(а):

64639617Только кое-где еще остались косяки в переводе. Мне даже как-то неудобно.

Не заморачивайся.

DenisLp писал(а):

64640173Объективно он неплох. Просто личное неприятие.

Я так и подумал )

DenisLp писал(а):

64640173А как же еще? Переводят обычно по зарубежным сабам.

Они не всегда есть и не всегда невшитые.
В любом случае, среди озвучивальщиков вообще распространено зажимать сабы

Кто посмотрел, отпишитесь, как фильм в целом? Стоит качать?

Производственная драма - для неторопливых немецких мужичков, которые, как я уже говорил, только и делают, что ездят на велосипеде, купаются в озере и бегают по лесу, осознавая свою гомосексуальность. Однако, сюжетная линия с русской тачкой там неплоха.

never_existed
Слушайте, я все хотела у вас спросить, - скажите, пожалуйста, что это за неземной красоты ребенок у вас на аватарке? Просто ангел эль-грековский! Sidemoon
Это «rebel girl» Фрея Беха Эриксен )

скрытый текст

После просмотра фильма начинаю понимать почему в комментариях о самом фильме нет отзывов. Отзываться просто не на что. Фильм никакой, больше похож на советскую документалку о буднях студентов, помогающих подшефному колхозу. Не будоражит мысли, не тревожит чувства. Ну а для таких как я ( любителей гей-темы) мой совет: посмотрите последние 20 минут, как короткометражку. Все понятно и не затянуто.

volodia.timoshencko2012 писал(а):

64766876Фильм никакой, больше похож на советскую документалку о буднях студентов, помогающих подшефному колхозу. Не будоражит мысли, не тревожит чувства. Ну а для таких как я ( любителей гей-темы) мой совет: посмотрите последние 20 минут, как короткометражку

В общем да. Хотя мне было интересно посмотреть на это именно как на немецкую документалку о гей-буднях в местных колхозах, с допущением что оно вот так обычно там и происходит. Если же не так, и никакой как-бы-документальной ценности фильм не несёт (разве что про колхозное устройство), то получается совсем долго скучно пресно.

а мне понравился фильм, именно вот этой неспешностью, травкой, телятами, минимумом диалогов (нафига болтать?), герои и так всё отлично показали. правда, перевод почти на одной громкости с оригиналом (в MPC смотрела), но это не мешало, говорят то мало. спасибо релизёру!

Фильмы с темой мужеложества не стоит вообще здесь выкладывать.

zemun1985
Принцип работы торрента заключается в том, что пользователи нигде не "выкладывают" фильм, а обмениваются им по частям друг с другом, пора бы это знать.


Источник: http://RuTracker.org/forum/viewtopic.php?t=4785977


Поделись с друзьями



Рекомендуем посмотреть ещё:



Похожие новости


Посадить капусту в открытый
Комнатный цветок плетущийся фото и название
Мальва сажать и уход
Цветок нимфеи фото
Сажать или не сажать хмель
Цена цветок из волос


Урожай stadt land fluss Урожай stadt land fluss Урожай stadt land fluss
Урожай stadt land fluss


Видео Урожай / Stadt Land Fluss (2011) : альбом фИЛЬМЫ ПРО ГЕЕВ, Фильмы
Урожай /Город, деревня, река/ (2011) - смотреть онлайн бесплатно



ШОКИРУЮЩИЕ НОВОСТИ